<?xml version="1.0" standalone="no"?>
<!DOCTYPE svg PUBLIC "-//W3C//DTD SVG 1.1//EN" "http://www.w3.org/Graphics/SVG/1.1/DTD/svg11.dtd">
<svg xmlns="http://www.w3.org/2000/svg">
<defs >
<font id="SofiaSans" horiz-adv-x="533" ><font-face
    font-family="Sofia Sans"
    units-per-em="1000"
    panose-1="0 0 0 0 0 0 0 0 0 0"
    ascent="900"
    descent="-300"
    alphabetic="0" />
<glyph unicode=" " horiz-adv-x="210" />
<glyph unicode="!" horiz-adv-x="231" d="M85 200Q75 200 75 210L69 645Q69 655 79 655H152Q162 655 162 645L156 210Q156 200 146 200H85ZM116 -12Q86 -12 73 3T60 44V54Q60 79 73 94T116 110Q146 110 159 95T172 54V44Q172 19 159 4T116 -12Z" />
<glyph unicode="&quot;" horiz-adv-x="325" d="M200 429Q190 429 190 439V673Q190 683 200 683H265Q275 683 275 673V439Q275 429 265 429H200ZM60 429Q50 429 50 439V673Q50 683 60 683H125Q135 683 135 673V439Q135 429 125 429H60Z" />
<glyph unicode="#" horiz-adv-x="600" d="M132 0Q122 0 122 10V125H40Q30 125 30 135V185Q30 195 40 195H122V418H40Q30 418 30 428V478Q30 488 40 488H122V603Q122 613 132 613H197Q207 613 207 603V488H393V603Q393 613 403 613H468Q478 613 478 603V488H560Q570
488 570 478V428Q570 418 560 418H478V195H560Q570 195 570 185V135Q570 125 560 125H478V10Q478 0 468 0H403Q393 0 393 10V125H207V10Q207 0 197 0H132ZM207 195H393V418H207V195Z" />
<glyph unicode="$" horiz-adv-x="630" d="M312 -12Q215 -12 159 35T102 182Q102 192 112 192H176Q185 192 185 181Q185 126 215 94T315 62Q383 62 414 85T445 165Q445 191 438 209T413 242T367 270L235 331Q174 359 143 400T112 503Q113 589 169 627T314 666Q410
666 466 619T522 477Q522 467 513 467H449Q439 467 439 477Q439 535 407 563T312 592Q257 592 227 571T196 506Q195 467 216 443T281 398L411 337Q449 320 475 299T516 248T530 168Q530 80 470 34T312 -12ZM291 -89Q281 -89 281 -79V4L357 9V-79Q357 -89 347 -89H291ZM281
649V732Q281 742 291 742H347Q357 742 357 732V644L281 649Z" />
<glyph unicode="%" horiz-adv-x="942" d="M247 0Q233 0 240 12L437 341L617 650Q622 657 629 657H695Q709 657 702 645L516 335L325 7Q320 0 313 0H247ZM229 317Q144 317 102 359T60 477V507Q60 584 102 625T229 667Q314 667 355 626T397 507V477Q397 401 355
359T229 317ZM229 381Q278 381 300 403T322 475V509Q322 560 300 581T229 603Q180 603 158 581T135 509V475Q135 425 157 403T229 381ZM713 -12Q628 -12 587 30T545 148V178Q545 255 587 296T713 338Q798 338 840 297T882 178V148Q882 72 840 30T713 -12ZM713 52Q762
52 784 74T807 146V180Q807 230 785 252T713 274Q664 274 642 252T620 180V146Q620 95 642 74T713 52Z" />
<glyph unicode="&amp;" horiz-adv-x="672" d="M556 0Q552 0 549 1T543 5L187 351Q139 398 116 440T93 525Q93 599 135 633T252 667Q320 667 359 632T398 532Q398 501 384 473T341 414T268 350L215 399Q250 426 272 448T305 491T316 532Q316 563 300 578T247 594Q209
594 192 576T175 526Q175 496 193 467T252 398L652 13Q657 9 656 5T647 0H556ZM254 -12Q184 -12 139 11T72 75T50 164Q50 211 67 248T116 317T186 378L244 332Q201 298 177 273T142 223T132 166Q132 123 165 93T263 63Q347 63 395 98T465 199T486 354Q486 364 496
364H559Q569 364 569 354Q569 241 535 159T431 33T254 -12Z" />
<glyph unicode="&apos;" horiz-adv-x="185" d="M60 429Q50 429 50 439V673Q50 683 60 683H125Q135 683 135 673V439Q135 429 125 429H60Z" />
<glyph unicode="(" horiz-adv-x="270" d="M168 -140Q132 -111 112 -84T84 -24T75 54V502Q75 548 84 579T115 637T168 696Q171 699 175 699T182 696L223 655Q230 648 223 641Q200 618 186 600T166 559T160 502V54Q160 20 167 -1T188 -41T223 -85Q229 -93 223 -99L182
-140Q179 -143 176 -143T168 -140Z" />
<glyph unicode=")" horiz-adv-x="270" d="M88 -140L47 -99Q41 -93 47 -85Q70 -61 83 -43T103 -2T110 54V502Q110 537 104 559T84 599T47 641Q40 648 47 655L88 696Q91 699 95 699T102 696Q137 666 157 639T186 580T195 502V54Q195 9 187 -24T159 -84T102 -140Q98
-143 95 -143T88 -140Z" />
<glyph unicode="*" horiz-adv-x="414" d="M141 416L101 446Q97 449 97 453T100 460L167 537L67 559Q61 560 61 563T61 571L77 617Q79 622 82 623T90 623L182 584L173 685Q171 695 182 695H231Q242 695 240 685L231 583L324 623Q328 625 332 624T337 617L353 571Q355
565 354 563T347 559L246 536L313 460Q317 456 316 453T311 446L271 417Q263 411 258 420L206 507L154 419Q151 415 148 414T141 416Z" />
<glyph unicode="+" horiz-adv-x="600" d="M272 113Q262 113 262 123V265H102Q92 265 92 275V326Q92 336 102 336H262V478Q262 488 272 488H328Q338 488 338 478V336H498Q508 336 508 326V275Q508 265 498 265H338V123Q338 113 328 113H272Z" />
<glyph unicode="," horiz-adv-x="232" d="M40 -128Q28 -128 31 -115L81 96Q83 105 91 105H167Q180 105 175 91L103 -121Q100 -128 94 -128H40Z" />
<glyph unicode="-" horiz-adv-x="490" d="M80 233Q70 233 70 243V288Q70 298 80 298H410Q420 298 420 288V243Q420 233 410 233H80Z" />
<glyph unicode="." horiz-adv-x="232" d="M116 -12Q86 -12 73 3T60 44V54Q60 79 73 94T116 110Q146 110 159 95T172 54V44Q172 19 159 4T116 -12Z" />
<glyph unicode="/" horiz-adv-x="372" d="M22 0Q8 0 13 11L276 647Q279 655 288 655H350Q364 655 359 644L96 8Q93 0 84 0H22Z" />
<glyph unicode="0" horiz-adv-x="580" d="M290 -12Q185 -12 126 48T67 215V440Q67 547 126 607T290 667Q395 667 454 607T513 440V215Q513 108 454 48T290 -12ZM290 63Q355 63 391 101T428 207V448Q428 516 392 554T290 592Q225 592 189 554T152 448V207Q152 140
188 102T290 63Z" />
<glyph unicode="1" horiz-adv-x="454" d="M50 0Q40 0 40 10V67Q40 77 50 77H206V558L56 511Q46 508 46 518V577Q46 585 52 587L261 657Q264 658 267 658T275 659H281Q291 659 291 649V77H429Q439 77 439 67V10Q439 0 429 0H50Z" />
<glyph unicode="2" horiz-adv-x="540" d="M80 0Q70 0 70 10V79Q70 127 87 164T134 231T197 284T266 331T330 376T376 425T394 485V506Q394 549 364 570T274 592Q215 592 187 566T158 493Q158 483 149 483H84Q74 483 74 493Q74 549 97 588T166 647T283 667Q382
667 430 625T479 502Q479 449 462 412T416 346T353 295T284 251T222 206T176 151T158 77H466Q476 77 476 67V10Q476 0 466 0H80Z" />
<glyph unicode="3" horiz-adv-x="548" d="M263 -12Q196 -12 151 9T83 70T60 162Q60 172 70 172H134Q144 172 144 162Q144 114 173 89T261 63Q329 63 366 91T403 171V197Q403 299 266 299H179Q169 299 169 309V363Q169 373 179 373H267Q326 373 356 400T387 479V505Q387
549 357 570T265 592Q204 592 175 569T145 493Q145 483 135 483H71Q61 483 61 493Q61 580 113 623T272 667Q374 667 423 627T472 500Q472 436 446 397T375 343V341Q433 322 460 283T488 180Q488 87 430 38T263 -12Z" />
<glyph unicode="4" horiz-adv-x="542" d="M360 0Q350 0 350 10V129H20Q10 129 10 139V145Q10 154 13 159L282 647Q287 655 295 655H361Q374 655 368 644L126 206H351V425Q351 435 361 435H422Q432 435 432 425V206H508Q518 206 518 196V139Q518 129 508 129H432V10Q432
0 422 0H360Z" />
<glyph unicode="5" horiz-adv-x="522" d="M244 -12Q182 -12 139 8T73 66T50 162Q50 172 60 172H123Q133 172 133 162Q133 113 163 88T251 63Q323 63 355 93T387 186V216Q387 260 373 288T328 330T249 344Q218 344 174 335T88 306Q80 302 75 306T70 317L100 645Q101
655 110 655H424Q434 655 434 645V588Q434 578 424 578H175L162 402Q194 410 221 413T271 416Q365 416 418 363T472 206Q472 100 414 44T244 -12Z" />
<glyph unicode="6" horiz-adv-x="568" d="M290 -12Q185 -12 126 43T67 203V455Q67 555 127 611T297 667Q357 667 400 651T468 604T492 530Q492 520 482 520H418Q408 520 408 530Q408 559 379 575T298 592Q225 592 189 559T152 458V204Q152 138 188 101T289 63Q354
63 390 101T426 206V234Q426 288 398 315T315 343Q272 343 226 325T138 271V343Q184 380 233 398T336 417Q423 417 467 369T511 225Q511 113 454 51T290 -12Z" />
<glyph unicode="7" horiz-adv-x="529" d="M150 0Q145 0 143 3T143 12L401 578H139V496Q139 486 129 486H65Q55 486 55 496V645Q55 655 65 655H504Q514 655 514 645V640Q514 633 511 625L232 9Q228 0 218 0H150Z" />
<glyph unicode="8" horiz-adv-x="576" d="M288 -12Q177 -12 116 34T55 176Q55 241 85 285T168 349Q125 369 104 402T83 496Q83 575 136 621T288 667Q387 667 440 621T493 496Q493 436 472 403T408 349Q460 330 490 286T521 176Q521 81 460 35T288 -12ZM288 60Q362
60 399 89T436 171V188Q436 249 397 282T288 316Q219 316 180 283T140 188V171Q140 118 177 89T288 60ZM288 382Q346 382 377 409T408 483V498Q408 542 378 568T288 595Q230 595 199 569T168 498V483Q168 436 199 409T288 382Z" />
<glyph unicode="9" horiz-adv-x="580" d="M282 -12Q185 -12 132 29T79 147Q79 157 89 157H153Q163 157 163 147Q163 117 193 90T283 63Q357 63 392 99T428 205V451Q428 517 390 554T286 592Q221 592 187 556T152 451V413Q152 364 183 336T269 308Q313 308 356
326T442 381L443 309Q395 269 352 252T257 234Q164 234 116 286T67 437Q67 549 124 608T287 667Q394 667 453 608T513 445V210Q513 101 455 45T282 -12Z" />
<glyph unicode=":" horiz-adv-x="232" d="M116 356Q86 356 73 371T60 412V422Q60 447 73 462T116 478Q146 478 159 463T172 422V412Q172 387 159 372T116 356ZM116 -12Q86 -12 73 3T60 44V54Q60 79 73 94T116 110Q146 110 159 95T172 54V44Q172 19 159 4T116 -12Z" />
<glyph unicode=";" horiz-adv-x="236" d="M24 -128Q19 -128 16 -124T13 -115L63 97Q65 105 72 105H147Q152 105 155 101T157 91L85 -121Q82 -128 76 -128H24ZM120 356Q90 356 77 371T64 412V422Q64 447 77 462T120 478Q150 478 163 463T176 422V412Q176 387 163
372T120 356Z" />
<glyph unicode="&lt;" horiz-adv-x="600" d="M498 103L98 256Q90 259 90 267V326Q90 334 98 337L498 490Q510 495 510 482V420Q510 411 502 408L174 297L502 185Q510 182 510 173V111Q510 98 498 103Z" />
<glyph unicode="=" horiz-adv-x="600" d="M103 351Q93 351 93 361V411Q93 421 103 421H497Q507 421 507 411V361Q507 351 497 351H103ZM103 180Q93 180 93 190V240Q93 250 103 250H497Q507 250 507 240V190Q507 180 497 180H103Z" />
<glyph unicode="&gt;" horiz-adv-x="600" d="M102 103Q90 98 90 111V173Q90 182 98 185L426 297L98 408Q90 411 90 420V482Q90 495 102 490L502 337Q510 334 510 326V267Q510 259 502 256L102 103Z" />
<glyph unicode="?" horiz-adv-x="469" d="M179 200Q169 200 169 210V249Q169 281 186 307T230 356T282 404T325 457T343 522Q343 559 317 577T241 595Q180 595 156 567T131 485Q131 474 122 474H56Q50 474 48 478T46 486Q46 578 96 622T244 667Q337 667 383 631T429
528Q429 484 411 449T367 386T315 335T270 291T251 250L250 210Q250 200 240 200H179ZM213 -12Q183 -12 170 3T157 44V54Q157 79 170 94T213 110Q243 110 256 95T269 54V44Q269 19 256 4T213 -12Z" />
<glyph unicode="@" horiz-adv-x="1000" d="M489 -185Q345 -185 251 -142T111 -16T65 188V288Q65 408 110 499T249 643T490 695Q718 695 826 600T935 318V268Q935 194 909 137T833 47T711 15Q658 15 625 36T579 94T571 173L603 402Q579 407 553 410T499 413Q456
413 425 387T383 292L369 193Q362 139 376 114T434 89Q472 89 508 112T584 169L592 96Q555 67 507 41T408 14Q332 14 304 58T286 187L301 300Q312 386 361 437T499 488Q537 488 566 484T622 474T682 466Q692 465 691 455L655 191Q648 141 659 116T712 90Q773 90
811 136T850 268V318Q850 466 763 542T490 619Q380 619 304 581T189 469T150 288V188Q150 91 187 25T299 -75T489 -109H625Q635 -109 635 -119V-175Q635 -185 625 -185H489Z" />
<glyph unicode="A" horiz-adv-x="560" d="M9 0Q-2 0 1 11L222 647Q225 655 234 655H323Q332 655 335 647L559 11Q562 0 551 0H480Q471 0 468 8L318 458Q308 488 298 518T277 578H276Q266 549 256 520T236 461L88 8Q85 0 76 0H9ZM120 153L141 227H413L435 153H120Z" />
<glyph unicode="B" horiz-adv-x="573" d="M95 0Q85 0 85 10V645Q85 655 95 655H273Q387 655 443 615T500 491Q500 437 474 404T389 348V346Q459 333 493 291T528 180Q528 88 467 44T274 0H95ZM170 74H273Q365 74 404 100T443 186Q443 248 404 276T276 305H170V74ZM170
374H269Q345 374 380 399T415 480Q415 536 380 559T260 582H170V374Z" />
<glyph unicode="C" horiz-adv-x="633" d="M320 -12Q198 -12 136 49T73 223V432Q73 545 136 606T321 667Q398 667 456 641T544 565T564 446Q563 441 561 437T553 432H488Q477 432 479 442Q482 514 442 553T322 592Q243 592 201 551T158 433V222Q158 145 200 104T322
63Q401 63 444 102T479 213Q477 223 488 223H552Q562 223 564 209Q570 142 541 93T454 16T320 -12Z" />
<glyph unicode="D" horiz-adv-x="641" d="M95 0Q85 0 85 10V645Q85 655 95 655H270Q424 655 500 584T576 367V317Q576 157 501 79T270 0H95ZM170 72H264Q381 72 436 130T491 311V373Q491 481 436 532T264 583H170V72Z" />
<glyph unicode="E" d="M95 0Q85 0 85 10V645Q85 655 95 655H451Q461 655 461 645V588Q461 578 451 578H170V370H427Q437 370 437 360V306Q437 296 427 296H170V77H451Q461 77 461 67V10Q461 0 451 0H95Z" />
<glyph unicode="F" horiz-adv-x="504" d="M95 0Q85 0 85 10V645Q85 655 95 655H451Q461 655 461 645V588Q461 578 451 578H170V360H413Q423 360 423 350V296Q423 286 413 286H170V10Q170 0 160 0H95Z" />
<glyph unicode="G" horiz-adv-x="653" d="M306 -12Q233 -12 181 16T101 96T73 223V432Q73 542 140 604T324 667Q403 667 460 641T546 566T565 452Q564 442 554 442H489Q478 442 480 452Q483 498 466 529T414 576T326 592Q243 592 201 552T158 433V222Q158 142
198 103T319 63Q402 63 445 104T489 222V260H333Q323 260 323 270V324Q323 334 333 334H558Q568 334 568 324V127Q568 96 569 68T575 11Q576 6 574 3T566 0H513Q509 0 506 2T502 8Q500 21 498 37T495 71H494Q475 43 447 25T383 -3T306 -12Z" />
<glyph unicode="H" horiz-adv-x="661" d="M95 0Q85 0 85 10V645Q85 655 95 655H160Q170 655 170 645V375H491V645Q491 655 501 655H566Q576 655 576 645V10Q576 0 566 0H501Q491 0 491 10V301H170V10Q170 0 160 0H95Z" />
<glyph unicode="I" horiz-adv-x="255" d="M95 0Q85 0 85 10V645Q85 655 95 655H160Q170 655 170 645V10Q170 0 160 0H95Z" />
<glyph unicode="J" horiz-adv-x="265" d="M37 -139Q15 -144 12 -135L-5 -76Q-8 -65 13 -60Q54 -50 74 -14T95 82V645Q95 655 105 655H170Q180 655 180 645V86Q180 -11 144 -66T37 -139Z" />
<glyph unicode="K" horiz-adv-x="595" d="M95 0Q85 0 85 10V645Q85 655 95 655H160Q170 655 170 645V452Q170 422 170 392T169 331H170Q193 357 216 382T262 433L457 650Q461 655 469 655H554Q560 655 562 652T560 643L325 389L578 12Q581 7 580 4T572 0H489Q482
0 477 7L266 324L170 220V10Q170 0 160 0H95Z" />
<glyph unicode="L" horiz-adv-x="476" d="M95 0Q85 0 85 10V645Q85 655 95 655H160Q170 655 170 645V77H446Q456 77 456 67V10Q456 0 446 0H95Z" />
<glyph unicode="M" horiz-adv-x="769" d="M80 0Q70 0 70 10L84 645Q84 655 94 655H200Q207 655 211 647L386 254L558 647Q562 655 569 655H675Q685 655 685 645L699 10Q699 0 689 0H626Q616 0 616 10L606 412Q605 449 606 485T609 558H607Q592 521 577 485T544
412L396 91Q393 84 385 84H383Q375 84 372 91L222 417Q206 452 192 487T163 558H161Q163 523 163 487T163 416L153 10Q153 0 143 0H80Z" />
<glyph unicode="N" horiz-adv-x="662" d="M95 0Q85 0 85 10V645Q85 655 95 655H211Q220 655 223 648L411 266Q430 229 444 199T470 143T492 92H494Q494 120 494 150T494 212T493 270V645Q493 655 503 655H567Q577 655 577 645V10Q577 0 567 0H454Q445 0 442 7L257
379Q241 412 226 442T197 503T170 563H168Q168 529 168 498T169 437T169 371V10Q169 0 159 0H95Z" />
<glyph unicode="O" horiz-adv-x="642" d="M321 -12Q196 -12 135 49T73 223V432Q73 545 134 606T321 667Q446 667 507 606T569 432V223Q569 111 508 50T321 -12ZM321 63Q401 63 442 104T484 224V431Q484 511 443 551T321 592Q242 592 200 552T158 431V224Q158 145
200 104T321 63Z" />
<glyph unicode="P" horiz-adv-x="545" d="M95 0Q85 0 85 10V645Q85 655 95 655H262Q383 655 444 604T505 451Q505 351 444 299T262 247H170V10Q170 0 160 0H95ZM170 319H260Q344 319 382 350T420 448Q420 519 381 551T258 583H170V319Z" />
<glyph unicode="Q" horiz-adv-x="642" d="M441 -182Q398 -182 369 -159T325 -88T314 34Q314 44 324 44L385 40Q395 40 395 29Q393 -45 408 -74T457 -104Q464 -104 472 -102T488 -99Q493 -98 496 -100T499 -108V-163Q499 -172 487 -176Q479 -178 466 -180T441 -182ZM321
-12Q196 -12 135 49T73 223V432Q73 545 134 606T321 667Q446 667 507 606T569 432V223Q569 111 508 50T321 -12ZM321 63Q401 63 442 104T484 224V431Q484 511 443 551T321 592Q242 592 200 552T158 431V224Q158 145 200 104T321 63Z" />
<glyph unicode="R" horiz-adv-x="604" d="M95 0Q85 0 85 10V645Q85 655 95 655H288Q407 655 464 610T522 475Q522 403 488 356T390 290V289L557 12Q560 7 558 4T550 0H473Q465 0 461 7L298 279H170V10Q170 0 160 0H95ZM170 347H279Q363 347 400 376T437 469Q437
531 403 557T285 583H170V347Z" />
<glyph unicode="S" horiz-adv-x="568" d="M278 -12Q158 -12 102 39T52 174Q53 192 64 192H127Q139 192 139 176Q139 115 175 89T285 62Q356 62 392 87T429 165Q429 191 421 209T392 242T338 270L191 331Q145 350 117 373T76 427T63 497Q64 580 118 623T277 666Q348
666 400 645T479 584T501 486Q499 467 490 467H426Q421 467 419 471T417 486Q421 537 383 564T274 592Q212 592 181 570T148 502Q148 478 156 460T185 427T242 397L387 336Q433 317 461 294T501 241T514 167Q514 83 457 36T278 -12Z" />
<glyph unicode="T" horiz-adv-x="535" d="M235 0Q225 0 225 10V578H45Q35 578 35 588V645Q35 655 45 655H490Q500 655 500 645V588Q500 578 490 578H310V10Q310 0 300 0H235Z" />
<glyph unicode="U" horiz-adv-x="644" d="M322 -12Q207 -12 144 49T80 225V645Q80 655 90 655H155Q165 655 165 645V222Q165 146 205 105T322 63Q398 63 438 104T479 222V645Q479 655 489 655H554Q564 655 564 645V223Q564 114 500 51T322 -12Z" />
<glyph unicode="V" horiz-adv-x="584" d="M242 0Q233 0 230 8L16 644Q13 655 24 655H94Q103 655 106 647L244 221Q255 187 266 152T288 82H290Q301 116 312 150T335 218L479 647Q482 655 491 655H560Q571 655 568 644L349 8Q346 0 337 0H242Z" />
<glyph unicode="W" horiz-adv-x="847" d="M215 0Q206 0 204 8L21 644Q18 655 30 655H96Q105 655 107 647L223 234Q230 211 236 188T248 141T261 93H262Q273 128 283 162T304 230L388 509L352 634Q351 639 353 642T361 645H429Q438 645 440 636L553 221Q562 189
570 157T588 93H589Q595 116 601 139T613 185T625 231L737 647Q739 655 748 655H817Q829 655 826 644L650 8Q648 0 639 0H544Q535 0 533 8L465 243Q455 276 446 309T428 375H427Q417 343 408 311T388 246L317 8Q314 0 306 0H215Z" />
<glyph unicode="X" horiz-adv-x="551" d="M13 0Q7 0 6 3T7 12L221 338L21 643Q18 648 19 651T27 655H107Q114 655 118 649L231 476Q242 458 254 439T278 401H279Q291 421 303 441T329 480L438 649Q443 655 450 655H526Q532 655 533 652T532 643L333 336L544 12Q547
7 546 4T538 0H458Q451 0 446 6L327 189Q314 209 301 230T275 272H274Q262 253 249 232T223 191L104 7Q99 0 92 0H13Z" />
<glyph unicode="Y" horiz-adv-x="535" d="M235 0Q225 0 225 10V225L11 643Q9 648 11 651T18 655H94Q103 655 106 648L216 422Q229 396 242 369T268 315H269Q283 343 296 370T322 425L431 648Q434 655 443 655H517Q522 655 524 652T524 643L310 225V10Q310 0 300 0H235Z" />
<glyph unicode="Z" horiz-adv-x="545" d="M30 0Q20 0 20 9V11Q20 16 24 24L322 479Q338 504 354 528T387 578V579Q359 578 330 578T272 578H63Q53 578 53 588V645Q53 655 63 655H512Q522 655 522 646V644Q522 639 518 631L224 186Q206 158 189 131T152 77V76Q185
77 218 77T284 77H489Q499 77 499 67V10Q499 0 489 0H30Z" />
<glyph unicode="[" horiz-adv-x="270" d="M85 -142Q75 -142 75 -132V687Q75 697 85 697H270Q280 697 280 687V637Q280 627 270 627H160V-72H270Q280 -72 280 -82V-132Q280 -142 270 -142H85Z" />
<glyph unicode="\" horiz-adv-x="372" d="M288 0Q279 0 276 8L13 644Q8 655 22 655H84Q93 655 96 647L359 11Q364 0 350 0H288Z" />
<glyph unicode="]" horiz-adv-x="270" d="M0 -142Q-10 -142 -10 -132V-82Q-10 -72 0 -72H110V627H0Q-10 627 -10 637V687Q-10 697 0 697H185Q195 697 195 687V-132Q195 -142 185 -142H0Z" />
<glyph unicode="^" horiz-adv-x="506" d="M54 350Q49 350 47 353T47 362L212 676Q216 683 224 683H283Q291 683 295 676L460 362Q462 357 460 354T453 350H391Q382 350 379 357L253 606L128 357Q124 350 116 350H54Z" />
<glyph unicode="_" horiz-adv-x="540" d="M10 -128Q0 -128 0 -118V-73Q0 -63 10 -63H530Q540 -63 540 -73V-118Q540 -128 530 -128H10Z" />
<glyph unicode="`" horiz-adv-x="216" d="M126 556Q119 556 115 562L32 684Q29 688 30 691T37 695H107Q116 695 119 688L185 566Q190 556 180 556H126Z" />
<glyph unicode="a" horiz-adv-x="494" d="M358 0Q352 0 350 4T346 14Q345 22 342 48T337 96L334 134V333Q334 383 314 404T244 425Q154 425 154 363Q154 353 145 353H79Q69 353 68 372Q63 429 112 464T247 500Q334 500 376 459T419 335V121Q419 86 421 59T426
11Q428 0 416 0H358ZM167 -12Q109 -12 79 23T48 125Q48 177 68 210T134 261T256 285L350 293V228L254 220Q185 214 159 195T133 131Q133 97 147 80T189 63Q222 63 258 85T353 169V94Q318 56 288 33T228 -1T167 -12Z" />
<glyph unicode="b" horiz-adv-x="536" d="M268 -12Q236 -12 208 -8T148 1T75 8V673Q75 683 85 683H150Q160 683 160 673V73Q183 69 209 66T256 63Q324 63 355 97T387 199V309Q387 369 367 397T305 425Q270 425 234 405T141 333L145 416Q192 460 234 480T323 500Q396
500 434 454T472 314V191Q472 91 422 40T268 -12Z" />
<glyph unicode="c" horiz-adv-x="517" d="M266 -12Q166 -12 114 38T62 182V306Q62 400 115 450T268 500Q327 500 369 482T434 433T457 358Q457 335 447 335H381Q372 335 372 351Q372 386 344 405T268 425Q207 425 177 394T147 298V190Q147 126 177 95T267 63Q315
63 343 84T371 136Q371 152 380 152H446Q456 152 456 143Q456 72 407 30T266 -12Z" />
<glyph unicode="d" horiz-adv-x="543" d="M209 -12Q139 -12 102 35T64 174V299Q64 394 112 447T245 500Q284 500 327 490T392 463L397 390Q365 407 327 416T260 425Q204 425 177 391T149 289V169Q149 116 169 90T231 63Q256 63 280 72T333 104T401 166L399 88Q365
54 335 32T274 -1T209 -12ZM406 0Q395 0 394 11Q392 26 389 49T387 87L382 132V673Q382 683 392 683H457Q467 683 467 673V113Q467 99 468 80T470 42T474 14Q477 0 464 0H406Z" />
<glyph unicode="e" horiz-adv-x="519" d="M261 -12Q165 -12 114 33T62 166V306Q62 401 113 450T261 500Q358 500 408 452T459 311V233Q459 223 449 223H147V191Q147 124 175 94T266 63Q313 63 338 78T364 124Q364 135 375 135H440Q448 135 450 126Q454 62 403
25T261 -12ZM147 296H374V302Q374 365 346 395T262 425Q204 425 176 394T147 301V296Z" />
<glyph unicode="f" horiz-adv-x="367" d="M117 0Q113 0 110 3T107 10V415H30Q26 415 23 418T20 425V478Q20 483 23 485T30 488H107V540Q107 614 150 654T270 695Q293 695 317 691T358 679Q377 672 377 662V609Q377 603 373 601T354 605Q338 612 316 616T276 621Q235
621 214 600T192 538V488H337Q347 488 347 478V425Q347 421 345 418T337 415H192V10Q192 6 190 3T182 0H117Z" />
<glyph unicode="g" horiz-adv-x="517" d="M255 -197Q138 -197 87 -166T35 -70Q35 -29 54 1T114 51L181 24Q151 15 137 -5T123 -54Q123 -94 153 -109T259 -125Q338 -125 368 -109T399 -50Q399 -21 385 -7T339 8L154 18Q123 20 98 41T72 109Q72 141 87 162T138 211L192
179Q170 170 160 157T150 127Q150 109 162 102T199 92L365 82Q424 78 453 45T483 -54Q483 -130 429 -163T255 -197ZM263 158Q169 158 124 200T79 329Q79 416 124 458T266 500Q358 500 402 458T447 328Q447 241 403 200T263 158ZM263 232Q319 232 340 253T362 328Q362
382 340 404T263 426Q208 426 186 404T164 328Q164 275 186 254T263 232ZM385 444L315 474Q320 521 325 552T336 606Q339 618 348 618H411Q422 618 419 608Q409 577 402 542T385 444Z" />
<glyph unicode="h" horiz-adv-x="556" d="M406 0Q396 0 396 10V329Q396 378 376 401T315 425Q275 425 234 401T145 324L146 402Q179 437 209 458T269 490T334 500Q406 500 443 458T481 333V10Q481 0 471 0H406ZM85 0Q75 0 75 10V673Q75 683 85 683H150Q160 683
160 673V10Q160 0 150 0H85Z" />
<glyph unicode="i" horiz-adv-x="235" d="M85 0Q75 0 75 10V478Q75 488 85 488H150Q160 488 160 478V10Q160 0 150 0H85ZM118 570Q89 570 76 585T63 625V635Q63 659 76 674T118 690Q147 690 160 675T173 635V625Q173 601 160 586T118 570Z" />
<glyph unicode="j" horiz-adv-x="236" d="M42 -190Q34 -195 28 -187L-11 -138Q-14 -133 -13 -130T-8 -124Q18 -106 36 -80T65 -18T75 64V478Q75 483 78 485T85 488H150Q155 488 157 486T160 478V59Q160 -1 148 -48T109 -130T42 -190ZM118 570Q89 570 76 585T63
625V635Q63 659 76 674T118 690Q147 690 160 675T173 635V625Q173 601 160 586T118 570Z" />
<glyph unicode="k" horiz-adv-x="491" d="M85 0Q75 0 75 10V673Q75 683 85 683H150Q160 683 160 673V414Q160 380 160 346T159 276H160Q178 296 196 316T234 356L352 483Q356 488 364 488H452Q459 488 460 485T457 476L291 306L472 12Q475 7 473 4T465 0H388Q381
0 376 7L230 243L160 172V10Q160 0 150 0H85Z" />
<glyph unicode="l" horiz-adv-x="235" d="M85 0Q75 0 75 10V673Q75 683 85 683H150Q160 683 160 673V10Q160 0 150 0H85Z" />
<glyph unicode="m" horiz-adv-x="845" d="M85 0Q75 0 75 10V366Q75 393 74 422T68 476Q66 488 79 488H139Q148 488 149 481Q151 466 154 449T158 414Q203 459 243 479T329 500Q380 500 411 477T456 407Q504 456 545 478T634 500Q701 500 735 458T770 334V10Q770
0 760 0H695Q685 0 685 10V329Q685 377 668 401T613 425Q580 425 546 405T465 340V10Q465 0 455 0H390Q380 0 380 10V329Q380 377 363 401T308 425Q275 425 241 405T160 340V10Q160 0 150 0H85Z" />
<glyph unicode="n" horiz-adv-x="556" d="M406 0Q396 0 396 10V329Q396 379 376 402T314 425Q275 425 237 402T142 323L143 400Q177 436 207 458T268 490T333 500Q405 500 443 458T481 333V10Q481 0 471 0H406ZM85 0Q75 0 75 10V366Q75 392 73 424T68 475Q66 488
78 488H139Q148 488 150 478Q152 470 154 453T158 418T160 386V360V10Q160 0 150 0H85Z" />
<glyph unicode="o" horiz-adv-x="536" d="M268 -12Q167 -12 115 37T62 186V302Q62 402 114 451T268 500Q369 500 421 451T474 302V186Q474 86 422 37T268 -12ZM268 63Q332 63 360 95T389 194V294Q389 360 361 392T268 425Q204 425 176 393T147 294V194Q147 128
175 96T268 63Z" />
<glyph unicode="p" horiz-adv-x="537" d="M294 -12Q256 -12 215 -2T149 25L146 97Q175 81 210 72T276 63Q334 63 361 97T388 199V309Q388 369 367 397T305 425Q270 425 235 405T141 332V412Q175 443 204 462T262 491T323 500Q397 500 435 454T473 314V189Q473
92 427 40T294 -12ZM85 -185Q75 -185 75 -175V375Q75 398 73 426T68 476Q67 488 78 488H139Q149 488 150 478Q152 471 154 458T157 433T157 415L160 365V-175Q160 -185 150 -185H85Z" />
<glyph unicode="q" horiz-adv-x="541" d="M391 -185Q381 -185 381 -175V414Q356 419 327 422T276 425Q209 425 179 393T149 289V179Q149 118 168 91T231 63Q267 63 303 82T395 150L392 69Q346 26 303 7T212 -12Q137 -12 101 34T64 174V297Q64 398 115 449T268
500Q305 500 335 495T396 484T466 475V-175Q466 -185 456 -185H391Z" />
<glyph unicode="r" horiz-adv-x="356" d="M85 0Q75 0 75 10V369Q75 397 74 423T68 477Q66 488 78 488H139Q149 488 150 479Q154 460 156 436T158 394L160 341V10Q160 0 150 0H85ZM149 311L147 393Q168 424 195 448T251 486T304 500Q322 500 331 497Q339 495 340
487Q342 466 342 444T338 402Q336 391 325 394Q317 396 308 397T289 398Q264 398 239 387T191 357T149 311Z" />
<glyph unicode="s" horiz-adv-x="464" d="M233 -12Q143 -12 98 27T53 146Q53 155 63 155H129Q138 155 138 147Q138 102 160 82T234 62Q283 62 308 78T333 126Q333 149 319 164T275 193L161 240Q106 263 83 292T60 367Q60 433 102 466T227 500Q312 500 359 465T406
364Q406 355 396 355H330Q320 355 320 371Q320 397 296 411T230 426Q187 426 166 412T145 367Q145 345 156 334T203 308L317 260Q370 238 394 208T418 131Q418 62 370 25T233 -12Z" />
<glyph unicode="t" horiz-adv-x="385" d="M246 -12Q195 -12 165 5T121 58T107 145V415H30Q20 415 20 425V478Q20 488 30 488H109L120 608Q121 618 131 618H181Q191 618 191 608L192 488H341Q351 488 351 478V425Q351 415 341 415H192V147Q192 100 208 81T265 62Q285
62 305 66T340 78Q352 83 352 71V16Q352 8 344 5Q326 -2 302 -7T246 -12Z" />
<glyph unicode="u" horiz-adv-x="542" d="M207 -12Q143 -12 109 31T75 155V478Q75 488 85 488H150Q160 488 160 478V159Q160 110 177 87T232 63Q269 63 306 86T400 166L398 87Q366 54 334 32T271 -1T207 -12ZM407 0Q396 0 395 10Q392 29 390 49T387 90L382 132V478Q382
488 392 488H457Q467 488 467 478V122Q467 95 468 66T474 10Q476 0 463 0H407Z" />
<glyph unicode="v" horiz-adv-x="496" d="M201 0Q192 0 189 8L26 477Q23 488 34 488H103Q112 488 115 480L204 200Q215 166 226 132T247 62H249Q259 97 270 131T292 199L381 480Q384 488 393 488H462Q473 488 470 477L306 8Q303 0 294 0H201Z" />
<glyph unicode="w" horiz-adv-x="716" d="M182 0Q174 0 171 9L26 477Q23 488 34 488H104Q112 488 115 479L194 203Q203 171 212 139T230 75H232Q242 106 252 137T272 199L326 366L296 467Q293 478 304 478H367Q376 478 378 470L452 198Q460 167 468 137T484 75H486Q495
107 503 138T521 201L601 479Q604 488 612 488H682Q693 488 690 477L544 9Q541 0 533 0H442Q434 0 431 8L400 110Q390 144 381 179T362 254H360Q350 214 340 180T318 113L284 8Q281 0 273 0H182Z" />
<glyph unicode="x" horiz-adv-x="477" d="M18 0Q12 0 10 4T12 12L185 251L24 476Q20 481 22 484T30 488H108Q116 488 120 482L190 381Q202 364 214 345T238 309H239Q252 328 266 348T293 387L360 482Q364 488 372 488H445Q451 488 453 485T451 476L290 254L465
12Q469 8 467 4T459 0H381Q373 0 369 6L302 100Q286 123 270 147T237 194H236Q221 171 205 147T173 100L107 6Q103 0 95 0H18Z" />
<glyph unicode="y" horiz-adv-x="497" d="M145 -185Q133 -185 138 -173L209 6L24 476Q19 488 31 488H102Q110 488 113 480L203 238Q215 207 226 174T249 109H250Q261 141 273 174T297 238L387 480Q390 488 399 488H466Q479 488 474 476L221 -177Q218 -185 210 -185H145Z" />
<glyph unicode="z" horiz-adv-x="464" d="M35 0Q25 0 25 9V11Q25 19 29 24L248 333Q262 353 276 373T306 414V415Q278 415 250 415T192 415H58Q48 415 48 425V478Q48 488 58 488H429Q439 488 439 479V477Q439 473 438 470T435 464L222 164Q206 142 191 120T158
74V73Q184 73 209 73T259 73H418Q428 73 428 63V10Q428 0 418 0H35Z" />
<glyph unicode="{" horiz-adv-x="266" d="M261 -142Q197 -142 162 -128T114 -75T100 38V162Q100 209 86 225T35 242H20Q10 242 10 252V302Q10 312 20 312H35Q71 312 85 329T100 392V517Q100 593 114 631T163 683T261 697Q271 697 271 687V637Q271 627 261 627Q229
627 213 620T191 593T185 538V392Q185 341 172 315T127 277Q157 267 171 240T185 162V17Q185 -20 191 -39T213 -65T261 -72Q271 -72 271 -82V-132Q271 -142 261 -142Z" />
<glyph unicode="|" horiz-adv-x="257" d="M95 -185Q85 -185 85 -175V820Q85 830 95 830H162Q172 830 172 820V-175Q172 -185 162 -185H95Z" />
<glyph unicode="}" horiz-adv-x="266" d="M5 -142Q-5 -142 -5 -132V-82Q-5 -72 5 -72Q36 -72 52 -66T75 -40T81 17V162Q81 213 95 240T139 277Q108 288 95 314T81 392V538Q81 574 76 593T54 619T5 627Q-5 627 -5 637V687Q-5 697 5 697Q68 697 103 684T152 632T166
517V392Q166 346 180 329T231 312H246Q256 312 256 302V252Q256 242 246 242H231Q195 242 181 226T166 162V38Q166 -36 153 -75T105 -128T5 -142Z" />
<glyph unicode="~" horiz-adv-x="600" d="M389 251Q358 251 337 255T298 265T260 275T209 279Q184 279 153 271T104 258Q93 255 93 266V316Q93 324 98 326Q110 332 140 342T211 352Q242 352 263 348T303 338T341 328T391 324Q417 324 448 332T496 345Q507 348
507 337V287Q507 278 500 275Q487 270 458 261T389 251Z" />
<glyph unicode="&#xa0;" horiz-adv-x="210" />
<glyph unicode="&#xa1;" horiz-adv-x="231" d="M85 288H146Q156 288 156 278L162 -157Q162 -167 152 -167H79Q69 -167 69 -157L75 278Q75 288 85 288ZM116 500Q146 500 159 485T172 444V434Q172 409 159 394T116 378Q86 378 73 393T60 434V444Q60 469 73 484T116 500Z" />
<glyph unicode="&#xa2;" horiz-adv-x="630" d="M289 529V616Q289 626 299 626H355Q365 626 365 616V533L289 529ZM299 -38Q289 -38 289 -28V59L365 55V-28Q365 -38 355 -38H299ZM322 38Q222 38 170 88T118 232V356Q118 450 171 500T324 550Q383 550 425 532T490
483T513 408Q513 385 503 385H437Q428 385 428 401Q428 436 400 455T324 475Q263 475 233 444T203 348V240Q203 176 233 145T323 113Q371 113 399 134T427 186Q427 202 436 202H502Q512 202 512 193Q512 122 463 80T322 38Z" />
<glyph unicode="&#xa3;" horiz-adv-x="630" d="M131 0Q121 0 121 10V53Q121 60 126 65Q149 90 159 114T169 166V469Q169 527 186 571T243 641T351 667Q402 667 440 651T499 597T521 493Q521 483 511 483H449Q439 483 439 493Q439 519 433 541T407 578T352 592Q296
592 275 561T254 462V184Q254 142 243 118T214 77H542Q552 77 552 67V10Q552 0 542 0H131ZM96 305Q86 305 86 315V365Q86 375 96 375H407Q417 375 417 365V315Q417 305 407 305H96Z" />
<glyph unicode="&#xa4;" horiz-adv-x="630" d="M135 111Q129 105 121 112L79 154Q73 161 80 168L142 221Q132 241 126 264T120 314Q120 340 126 363T142 407L80 460Q73 468 79 474L121 516Q129 524 135 517L193 464Q244 498 315 498Q386 498 437 464L495 517Q502
524 509 516L551 474Q558 468 550 460L488 407Q499 387 504 364T510 314Q510 288 505 265T488 221L550 168Q558 161 551 154L509 112Q502 105 495 111L437 164Q386 130 315 130Q244 130 193 164L135 111ZM315 200Q377 200 403 231T430 314Q430 367 404 397T315
428Q254 428 227 398T200 314Q200 262 227 231T315 200Z" />
<glyph unicode="&#xa5;" horiz-adv-x="631" d="M283 0Q273 0 273 10V225L70 643Q68 648 70 651T77 655H152Q161 655 164 648L274 405Q285 382 295 358T316 311H317Q327 334 338 358T359 406L469 648Q472 655 481 655H554Q559 655 561 652T561 643L358 225V10Q358
0 348 0H283ZM167 97Q157 97 157 107V157Q157 167 167 167H463Q473 167 473 157V107Q473 97 463 97H167ZM167 225Q157 225 157 235V285Q157 295 167 295H463Q473 295 473 285V235Q473 225 463 225H167Z" />
<glyph unicode="&#xa6;" horiz-adv-x="257" d="M95 392Q85 392 85 402V820Q85 830 95 830H162Q172 830 172 820V402Q172 392 162 392H95ZM95 -185Q85 -185 85 -175V243Q85 253 95 253H162Q172 253 172 243V-175Q172 -185 162 -185H95Z" />
<glyph unicode="&#xa7;" horiz-adv-x="481" d="M305 115L249 162Q311 173 338 194T366 258Q366 292 346 315T278 362L170 418Q136 436 114 456T80 502T69 558Q69 626 115 660T250 695Q343 695 387 657T432 559Q432 550 422 550H357Q347 550 347 560Q347 586 327
603T249 621Q154 621 154 558Q154 531 168 517T210 487L352 407Q377 394 399 375T436 328T451 261Q451 205 413 167T305 115ZM231 -118Q170 -118 130 -100T69 -52T49 18Q49 27 59 27H124Q134 27 134 17Q134 -8 155 -26T232 -44Q327 -44 327 21Q327 48 314 61T271
91L129 169Q105 183 82 202T45 250T30 316Q30 372 68 410T176 462L232 415Q170 404 143 383T115 319Q115 285 136 263T203 215L311 158Q362 131 387 100T412 19Q412 -49 366 -83T231 -118Z" />
<glyph unicode="&#xa8;" horiz-adv-x="333" d="M82 570Q54 570 42 584T30 621V631Q30 654 42 668T82 682Q110 682 122 668T134 631V621Q134 599 122 585T82 570ZM251 570Q223 570 211 584T199 621V631Q199 654 211 668T251 682Q279 682 291 668T303 631V621Q303
599 291 585T251 570Z" />
<glyph unicode="&#xa9;" horiz-adv-x="716" d="M358 -12Q261 -12 199 17T106 102T75 232V372Q75 448 105 502T198 586T358 616Q455 616 517 587T610 503T641 372V232Q641 157 611 102T518 18T358 -12ZM358 54Q462 54 515 98T569 229V375Q569 461 516 505T358 550Q255
550 201 506T147 375V229Q147 143 201 99T358 54ZM359 127Q294 127 258 162T222 262V342Q222 406 258 441T361 477Q426 477 461 447T496 361Q496 350 487 350H431Q422 350 422 362Q422 385 407 396T362 408Q329 408 313 391T297 337V267Q297 196 360 196Q391 196
406 208T421 242Q421 248 422 250T431 253H486Q495 253 495 243Q495 193 461 160T359 127Z" />
<glyph unicode="&#xaa;" horiz-adv-x="394" d="M144 322Q103 322 79 346T55 417Q55 472 90 497T207 530L259 535V550Q259 579 246 591T200 604Q140 604 140 570Q140 560 129 560H84Q73 560 72 574Q68 613 104 640T202 667Q264 667 296 639T329 551V415Q329 391
330 373T334 341Q336 329 323 329H279Q273 329 271 333T267 342Q266 346 265 356T262 377Q231 347 202 335T144 322ZM70 204Q60 204 60 214V257Q60 267 70 267H329Q339 267 339 257V214Q339 204 329 204H70ZM160 382Q179 382 205 395T259 434V483L208 478Q160 474
142 461T124 422Q124 400 133 391T160 382Z" />
<glyph unicode="&#xab;" horiz-adv-x="498" d="M348 93Q341 93 336 100L244 256Q239 263 244 270L336 426Q341 433 348 433H414Q419 433 421 430T421 421L335 263L421 105Q424 100 422 97T414 93H348ZM178 93Q171 93 166 100L74 256Q69 263 74 270L166 426Q171
433 178 433H244Q249 433 251 430T251 421L165 263L251 105Q254 100 252 97T244 93H178Z" />
<glyph unicode="&#xac;" horiz-adv-x="600" d="M442 113Q432 113 432 123V265H102Q92 265 92 275V325Q92 335 102 335H498Q508 335 508 325V123Q508 113 498 113H442Z" />
<glyph unicode="&#xad;" horiz-adv-x="490" d="M80 233Q70 233 70 243V288Q70 298 80 298H410Q420 298 420 288V243Q420 233 410 233H80Z" />
<glyph unicode="&#xae;" horiz-adv-x="598" d="M299 305Q184 305 133 357T82 491V521Q82 603 133 653T299 703Q415 703 467 652T519 519V489Q519 407 467 356T299 305ZM299 354Q381 354 424 388T467 483V525Q467 587 424 620T299 654Q217 654 176 622T134 527V485Q134
424 175 389T299 354ZM227 395Q217 395 217 405V609Q217 618 228 618H299Q355 618 377 600T400 547Q400 521 388 506T348 481L400 407Q404 403 403 399T395 395H363Q356 395 351 402L302 475H264V405Q264 395 254 395H227ZM264 513H304Q330 513 341 520T352 541V549Q352
566 341 573T302 580H264V513Z" />
<glyph unicode="&#xaf;" horiz-adv-x="275" d="M40 570Q30 570 30 580V632Q30 642 40 642H235Q245 642 245 632V580Q245 570 235 570H40Z" />
<glyph unicode="&#xb0;" horiz-adv-x="391" d="M196 400Q127 400 89 435T50 538V556Q50 623 88 658T196 694Q265 694 303 659T341 556V538Q341 471 303 436T196 400ZM196 457Q234 457 255 476T277 538V556Q277 598 256 617T196 637Q157 637 136 618T114 556V538Q114
496 135 477T196 457Z" />
<glyph unicode="&#xb1;" horiz-adv-x="600" d="M272 173Q262 173 262 183V325H102Q92 325 92 335V386Q92 396 102 396H262V538Q262 548 272 548H328Q338 548 338 538V396H498Q508 396 508 386V335Q508 325 498 325H338V183Q338 173 328 173H272ZM101 60Q91 60
91 70V120Q91 130 101 130H497Q507 130 507 120V70Q507 60 497 60H101Z" />
<glyph unicode="&#xb2;" horiz-adv-x="400" d="M66 351Q56 351 56 361V409Q56 445 71 471T109 517T160 553T210 584T249 616T264 654V668Q264 689 248 699T196 710Q162 710 146 698T129 653Q129 644 119 644H68Q58 644 58 654Q58 716 95 745T201 775Q269 775 302
747T336 665Q336 627 322 601T286 556T238 522T189 493T149 461T130 418H333Q343 418 343 408V361Q343 351 333 351H66Z" />
<glyph unicode="&#xb3;" horiz-adv-x="400" d="M191 344Q147 344 116 357T68 396T52 465Q52 475 62 475H113Q123 475 123 465Q123 432 139 421T190 409Q231 409 251 424T272 465V481Q272 507 253 519T193 532H136Q126 532 126 542V587Q126 597 136 597H193Q229
597 245 610T262 651V666Q262 688 246 699T192 710Q155 710 140 697T124 654Q124 644 114 644H63Q53 644 53 654Q53 716 88 745T196 775Q267 775 300 747T334 663Q334 631 323 608T289 570V569Q317 554 330 530T343 470Q343 409 304 377T191 344Z" />
<glyph unicode="&#xb4;" horiz-adv-x="216" d="M36 556Q26 556 31 566L97 688Q101 695 109 695H179Q184 695 185 692T184 684L101 562Q97 556 90 556H36Z" />
<glyph unicode="&#xb5;" horiz-adv-x="555" d="M85 -185Q75 -185 75 -175V478Q75 488 85 488H150Q160 488 160 478V170Q160 115 180 90T236 64Q272 64 313 87T382 149V478Q382 488 392 488H457Q467 488 467 478V116Q467 81 476 71T507 61Q514 61 522 62T539 64Q550
64 550 54V2Q550 -2 548 -4T541 -8Q531 -9 518 -10T497 -12Q444 -12 418 9T391 74V75Q358 35 312 12T229 -12Q183 -12 155 13V-175Q155 -185 145 -185H85Z" />
<glyph unicode="&#xb6;" horiz-adv-x="616" d="M235 -185Q225 -185 225 -175V313H162Q112 313 82 332T39 385T25 456V540Q25 579 38 611T82 663T162 683H526Q536 683 536 673V-175Q536 -185 526 -185H460Q450 -185 450 -175V606H311V-175Q311 -185 301 -185H235Z" />
<glyph unicode="&#xb7;" horiz-adv-x="242" d="M121 197Q91 197 78 212T65 253V263Q65 288 78 303T121 319Q151 319 164 304T177 263V253Q177 228 164 213T121 197Z" />
<glyph unicode="&#xb8;" horiz-adv-x="204" d="M79 -197Q69 -197 59 -196T38 -193Q30 -192 30 -185V-148Q30 -140 38 -141Q45 -142 53 -142T66 -143Q88 -143 97 -136T107 -119V-106Q107 -91 99 -86T73 -80H50Q43 -80 43 -73Q43 -68 43 -63T45 -53L68 22Q70 28
77 28H125Q133 28 130 17L112 -41H121Q147 -41 160 -58T174 -105V-120Q174 -160 151 -178T79 -197Z" />
<glyph unicode="&#xb9;" horiz-adv-x="400" d="M74 351Q64 351 64 361V408Q64 418 74 418H170V686L80 659Q68 656 68 666V711Q68 724 78 727L211 769Q219 771 224 771H231Q241 771 241 761V418H326Q336 418 336 408V361Q336 351 326 351H74Z" />
<glyph unicode="&#xba;" horiz-adv-x="402" d="M200 322Q132 322 94 361T55 470V519Q55 588 93 627T200 667Q269 667 308 628T347 519V470Q347 401 308 362T200 322ZM71 204Q61 204 61 214V257Q61 267 71 267H330Q340 267 340 257V214Q340 204 330 204H71ZM200
385Q237 385 257 406T277 465V525Q277 563 257 583T200 604Q164 604 145 584T125 525V465Q125 427 144 406T200 385Z" />
<glyph unicode="&#xbb;" horiz-adv-x="498" d="M254 93Q249 93 247 96T247 105L333 263L247 421Q244 426 246 429T254 433H320Q327 433 332 426L424 270Q429 263 424 256L332 100Q327 93 320 93H254ZM84 93Q79 93 77 96T77 105L163 263L77 421Q74 426 76 429T84
433H150Q157 433 162 426L254 270Q259 263 254 256L162 100Q157 93 150 93H84Z" />
<glyph unicode="&#xbc;" horiz-adv-x="882" d="M74 238Q64 238 64 248V295Q64 305 74 305H170V573L80 546Q68 543 68 553V598Q68 611 78 614L211 656Q219 658 224 658H231Q241 658 241 648V305H326Q336 305 336 295V248Q336 238 326 238H74ZM268 -30Q256 -30 261
-18L446 353L604 678Q608 685 616 685H673Q678 685 680 682T680 673L506 325L337 -23Q334 -30 325 -30H268ZM736 0Q726 0 726 10V78H522Q512 78 512 88V94Q512 102 516 110L679 407Q685 417 693 417H748Q755 417 757 414T756 404L613 145H727V274Q727 284 737 284H786Q796
284 796 274V145H838Q848 145 848 135V88Q848 78 838 78H796V10Q796 0 786 0H736Z" />
<glyph unicode="&#xbd;" horiz-adv-x="932" d="M74 238Q64 238 64 248V295Q64 305 74 305H170V573L80 546Q68 543 68 553V598Q68 611 78 614L211 656Q219 658 224 658H231Q241 658 241 648V305H326Q336 305 336 295V248Q336 238 326 238H74ZM268 -30Q256 -30 261
-18L446 353L604 678Q608 685 616 685H673Q678 685 680 682T680 673L506 325L337 -23Q334 -30 325 -30H268ZM598 0Q588 0 588 10V58Q588 94 603 120T641 166T692 202T742 233T781 265T796 303V317Q796 338 780 348T728 359Q694 359 678 347T661 302Q661 293 651
293H600Q590 293 590 303Q590 365 627 394T733 424Q801 424 834 396T868 314Q868 276 854 250T818 205T770 171T721 142T681 110T662 67H865Q875 67 875 57V10Q875 0 865 0H598Z" />
<glyph unicode="&#xbe;" horiz-adv-x="872" d="M191 231Q147 231 116 244T68 283T52 352Q52 362 62 362H113Q123 362 123 352Q123 319 139 308T190 296Q231 296 251 311T272 352V368Q272 394 253 406T193 419H136Q126 419 126 429V474Q126 484 136 484H193Q229
484 245 497T262 538V553Q262 575 246 586T192 597Q155 597 140 584T124 541Q124 531 114 531H63Q53 531 53 541Q53 603 88 632T196 662Q267 662 300 634T334 550Q334 518 323 495T289 457V456Q317 441 330 417T343 357Q343 296 304 264T191 231ZM258 -30Q246 -30
251 -18L436 353L594 678Q598 685 606 685H663Q668 685 670 682T670 673L496 325L327 -23Q324 -30 315 -30H258ZM726 0Q716 0 716 10V78H512Q502 78 502 88V94Q502 102 506 110L669 407Q675 417 683 417H738Q745 417 747 414T746 404L603 145H717V274Q717 284 727
284H776Q786 284 786 274V145H828Q838 145 838 135V88Q838 78 828 78H786V10Q786 0 776 0H726Z" />
<glyph unicode="&#xbf;" horiz-adv-x="465" d="M297 288Q307 288 307 278V239Q307 207 290 181T246 132T194 84T151 31T133 -34Q133 -71 159 -89T235 -107Q297 -107 321 -79T345 3Q345 14 354 14H420Q426 14 428 11T430 2Q430 -90 380 -134T232 -179Q139 -179
93 -143T47 -40Q47 4 65 39T109 102T161 153T206 197T225 238L226 278Q226 288 236 288H297ZM263 500Q293 500 306 485T319 444V434Q319 409 306 394T263 378Q233 378 220 393T207 434V444Q207 469 220 484T263 500Z" />
<glyph unicode="&#xc0;" horiz-adv-x="560" d="M9 0Q-2 0 1 11L222 647Q225 655 234 655H323Q332 655 335 647L559 11Q562 0 551 0H480Q471 0 468 8L318 458Q308 488 298 518T277 578H276Q266 549 256 520T236 461L88 8Q85 0 76 0H9ZM120 153L141 227H413L435
153H120ZM270 710Q263 710 259 716L187 817Q184 822 185 825T192 829H265Q272 829 275 822L331 720Q333 716 332 713T326 710H270Z" />
<glyph unicode="&#xc1;" horiz-adv-x="560" d="M9 0Q-2 0 1 11L222 647Q225 655 234 655H323Q332 655 335 647L559 11Q562 0 551 0H480Q471 0 468 8L318 458Q308 488 298 518T277 578H276Q266 549 256 520T236 461L88 8Q85 0 76 0H9ZM120 153L141 227H413L435
153H120ZM232 710Q227 710 226 713T227 720L283 822Q287 829 293 829H366Q371 829 372 826T371 817L299 716Q295 710 288 710H232Z" />
<glyph unicode="&#xc2;" horiz-adv-x="560" d="M9 0Q-2 0 1 11L222 647Q225 655 234 655H323Q332 655 335 647L559 11Q562 0 551 0H480Q471 0 468 8L318 458Q308 488 298 518T277 578H276Q266 549 256 520T236 461L88 8Q85 0 76 0H9ZM120 153L141 227H413L435
153H120ZM150 718Q139 713 139 724V774Q139 781 146 784L272 840Q279 844 286 840L412 784Q419 781 419 774V724Q419 713 408 718L279 764L150 718Z" />
<glyph unicode="&#xc3;" horiz-adv-x="560" d="M9 0Q-2 0 1 11L222 647Q225 655 234 655H323Q332 655 335 647L559 11Q562 0 551 0H480Q471 0 468 8L318 458Q308 488 298 518T277 578H276Q266 549 256 520T236 461L88 8Q85 0 76 0H9ZM120 153L141 227H413L435
153H120ZM335 719Q313 719 296 725T261 738T223 744Q202 744 183 738T152 725Q140 718 140 731V778Q140 788 146 791Q157 796 176 806T226 816Q253 816 270 810T303 798T337 791Q358 791 377 797T408 810Q420 817 420 804V757Q420 749 414 744Q404 737 385 728T335
719Z" />
<glyph unicode="&#xc4;" horiz-adv-x="560" d="M9 0Q-2 0 1 11L222 647Q225 655 234 655H323Q332 655 335 647L559 11Q562 0 551 0H480Q471 0 468 8L318 458Q308 488 298 518T277 578H276Q266 549 256 520T236 461L88 8Q85 0 76 0H9ZM120 153L141 227H413L435
153H120ZM195 711Q167 711 155 725T143 762V772Q143 795 155 809T195 823Q223 823 235 809T247 772V762Q247 740 235 726T195 711ZM363 711Q335 711 323 725T311 762V772Q311 795 323 809T363 823Q391 823 403 809T415 772V762Q415 740 403 726T363 711Z" />
<glyph unicode="&#xc5;" horiz-adv-x="560" d="M559 11Q562 0 551 0H480Q471 0 468 8L420 153H135L88 8Q85 0 76 0H9Q-2 0 1 11L213 622Q192 634 181 654T169 703Q169 750 199 774T280 799Q330 799 360 775T391 703Q391 674 379 653T344 621L559 11ZM229 703Q229
683 240 670T280 657Q308 657 319 670T331 703Q331 723 320 736T280 749Q252 749 241 736T229 703ZM160 227H395L318 458Q308 488 298 518T277 578H276Q266 549 256 520T236 461L160 227Z" />
<glyph unicode="&#xc6;" horiz-adv-x="834" d="M9 0Q4 0 2 3T2 12L332 648Q336 655 344 655H752Q762 655 762 645V588Q762 578 752 578H471V370H728Q738 370 738 360V306Q738 296 728 296H471V77H752Q762 77 762 67V10Q762 0 752 0H396Q386 0 386 10V153H164L90
7Q86 0 78 0H9ZM202 227H386V500Q386 523 386 542T387 593H385Q375 571 364 549T342 503L202 227Z" />
<glyph unicode="&#xc7;" horiz-adv-x="633" d="M320 -12Q198 -12 136 49T73 223V432Q73 545 136 606T321 667Q398 667 456 641T544 565T564 446Q563 441 561 437T553 432H488Q477 432 479 442Q482 514 442 553T322 592Q243 592 201 551T158 433V222Q158 145 200
104T322 63Q401 63 444 102T479 213Q477 223 488 223H552Q562 223 564 209Q570 142 541 93T454 16T320 -12ZM307 -197Q297 -197 287 -196T266 -193Q258 -192 258 -185V-148Q258 -140 266 -141Q273 -142 281 -142T294 -143Q316 -143 325 -136T335 -119V-106Q335
-91 327 -86T301 -80H278Q271 -80 271 -73Q271 -68 271 -63T273 -53L296 22Q298 28 305 28H353Q361 28 358 17L340 -41H349Q375 -41 388 -58T402 -105V-120Q402 -160 379 -178T307 -197Z" />
<glyph unicode="&#xc8;" d="M95 0Q85 0 85 10V645Q85 655 95 655H451Q461 655 461 645V588Q461 578 451 578H170V370H427Q437 370 437 360V306Q437 296 427 296H170V77H451Q461 77 461 67V10Q461 0 451 0H95ZM271 710Q264 710 260 716L188 817Q185 822 186 825T193
829H266Q273 829 276 822L332 720Q334 716 333 713T327 710H271Z" />
<glyph unicode="&#xc9;" d="M95 0Q85 0 85 10V645Q85 655 95 655H451Q461 655 461 645V588Q461 578 451 578H170V370H427Q437 370 437 360V306Q437 296 427 296H170V77H451Q461 77 461 67V10Q461 0 451 0H95ZM233 710Q228 710 227 713T228 720L284 822Q288 829
294 829H367Q372 829 373 826T372 817L300 716Q296 710 289 710H233Z" />
<glyph unicode="&#xca;" d="M95 0Q85 0 85 10V645Q85 655 95 655H451Q461 655 461 645V588Q461 578 451 578H170V370H427Q437 370 437 360V306Q437 296 427 296H170V77H451Q461 77 461 67V10Q461 0 451 0H95ZM151 718Q140 713 140 724V774Q140 781 147 784L273
840Q280 844 287 840L413 784Q420 781 420 774V724Q420 713 409 718L280 764L151 718Z" />
<glyph unicode="&#xcb;" d="M95 0Q85 0 85 10V645Q85 655 95 655H451Q461 655 461 645V588Q461 578 451 578H170V370H427Q437 370 437 360V306Q437 296 427 296H170V77H451Q461 77 461 67V10Q461 0 451 0H95ZM196 711Q168 711 156 725T144 762V772Q144 795 156
809T196 823Q224 823 236 809T248 772V762Q248 740 236 726T196 711ZM364 711Q336 711 324 725T312 762V772Q312 795 324 809T364 823Q392 823 404 809T416 772V762Q416 740 404 726T364 711Z" />
<glyph unicode="&#xcc;" horiz-adv-x="255" d="M95 0Q85 0 85 10V645Q85 655 95 655H160Q170 655 170 645V10Q170 0 160 0H95ZM119 710Q112 710 108 716L36 817Q33 822 34 825T41 829H114Q121 829 124 822L180 720Q182 716 181 713T175 710H119Z" />
<glyph unicode="&#xcd;" horiz-adv-x="255" d="M95 0Q85 0 85 10V645Q85 655 95 655H160Q170 655 170 645V10Q170 0 160 0H95ZM81 710Q76 710 75 713T76 720L132 822Q136 829 142 829H215Q220 829 221 826T220 817L148 716Q144 710 137 710H81Z" />
<glyph unicode="&#xce;" horiz-adv-x="255" d="M95 0Q85 0 85 10V645Q85 655 95 655H160Q170 655 170 645V10Q170 0 160 0H95ZM255 718Q244 713 244 724V774Q244 781 251 784L377 840Q384 844 391 840L517 784Q524 781 524 774V724Q524 713 513 718L384 764L255 718Z" />
<glyph unicode="&#xcf;" horiz-adv-x="255" d="M95 0Q85 0 85 10V645Q85 655 95 655H160Q170 655 170 645V10Q170 0 160 0H95ZM300 711Q272 711 260 725T248 762V772Q248 795 260 809T300 823Q328 823 340 809T352 772V762Q352 740 340 726T300 711ZM468 711Q440
711 428 725T416 762V772Q416 795 428 809T468 823Q496 823 508 809T520 772V762Q520 740 508 726T468 711Z" />
<glyph unicode="&#xd0;" horiz-adv-x="641" d="M15 298Q5 298 5 308V358Q5 368 15 368H85H317Q327 368 327 358V308Q327 298 317 298H15ZM95 0Q85 0 85 10V645Q85 655 95 655H270Q424 655 500 584T576 367V317Q576 157 501 79T270 0H95ZM170 72H264Q381 72 436
130T491 311V373Q491 481 436 532T264 583H170V72Z" />
<glyph unicode="&#xd1;" horiz-adv-x="662" d="M95 0Q85 0 85 10V645Q85 655 95 655H211Q220 655 223 648L411 266Q430 229 444 199T470 143T492 92H494Q494 120 494 150T494 212T493 270V645Q493 655 503 655H567Q577 655 577 645V10Q577 0 567 0H454Q445 0 442
7L257 379Q241 412 226 442T197 503T170 563H168Q168 529 168 498T169 437T169 371V10Q169 0 159 0H95ZM387 719Q365 719 348 725T313 738T275 744Q254 744 235 738T204 725Q192 718 192 731V778Q192 788 198 791Q209 796 228 806T278 816Q305 816 322 810T355
798T389 791Q410 791 429 797T460 810Q472 817 472 804V757Q472 749 466 744Q456 737 437 728T387 719Z" />
<glyph unicode="&#xd2;" horiz-adv-x="642" d="M321 -12Q196 -12 135 49T73 223V432Q73 545 134 606T321 667Q446 667 507 606T569 432V223Q569 111 508 50T321 -12ZM321 63Q401 63 442 104T484 224V431Q484 511 443 551T321 592Q242 592 200 552T158 431V224Q158
145 200 104T321 63ZM312 710Q305 710 301 716L229 817Q226 822 227 825T234 829H307Q314 829 317 822L373 720Q375 716 374 713T368 710H312Z" />
<glyph unicode="&#xd3;" horiz-adv-x="642" d="M321 -12Q196 -12 135 49T73 223V432Q73 545 134 606T321 667Q446 667 507 606T569 432V223Q569 111 508 50T321 -12ZM321 63Q401 63 442 104T484 224V431Q484 511 443 551T321 592Q242 592 200 552T158 431V224Q158
145 200 104T321 63ZM274 710Q269 710 268 713T269 720L325 822Q329 829 335 829H408Q413 829 414 826T413 817L341 716Q337 710 330 710H274Z" />
<glyph unicode="&#xd4;" horiz-adv-x="642" d="M321 -12Q196 -12 135 49T73 223V432Q73 545 134 606T321 667Q446 667 507 606T569 432V223Q569 111 508 50T321 -12ZM321 63Q401 63 442 104T484 224V431Q484 511 443 551T321 592Q242 592 200 552T158 431V224Q158
145 200 104T321 63ZM192 718Q181 713 181 724V774Q181 781 188 784L314 840Q321 844 328 840L454 784Q461 781 461 774V724Q461 713 450 718L321 764L192 718Z" />
<glyph unicode="&#xd5;" horiz-adv-x="642" d="M321 -12Q196 -12 135 49T73 223V432Q73 545 134 606T321 667Q446 667 507 606T569 432V223Q569 111 508 50T321 -12ZM321 63Q401 63 442 104T484 224V431Q484 511 443 551T321 592Q242 592 200 552T158 431V224Q158
145 200 104T321 63ZM377 719Q355 719 338 725T303 738T265 744Q244 744 225 738T194 725Q182 718 182 731V778Q182 788 188 791Q199 796 218 806T268 816Q295 816 312 810T345 798T379 791Q400 791 419 797T450 810Q462 817 462 804V757Q462 749 456 744Q446 737
427 728T377 719Z" />
<glyph unicode="&#xd6;" horiz-adv-x="642" d="M321 -12Q196 -12 135 49T73 223V432Q73 545 134 606T321 667Q446 667 507 606T569 432V223Q569 111 508 50T321 -12ZM321 63Q401 63 442 104T484 224V431Q484 511 443 551T321 592Q242 592 200 552T158 431V224Q158
145 200 104T321 63ZM237 711Q209 711 197 725T185 762V772Q185 795 197 809T237 823Q265 823 277 809T289 772V762Q289 740 277 726T237 711ZM405 711Q377 711 365 725T353 762V772Q353 795 365 809T405 823Q433 823 445 809T457 772V762Q457 740 445 726T405
711Z" />
<glyph unicode="&#xd7;" horiz-adv-x="600" d="M171 135L135 171Q128 178 135 185L250 301L135 416Q128 423 135 430L171 466Q178 473 185 466L301 351L416 466Q423 473 430 466L466 430Q473 423 466 416L351 301L466 185Q473 178 466 171L430 135Q423 128 416
135L301 250L185 135Q178 128 171 135Z" />
<glyph unicode="&#xd8;" horiz-adv-x="642" d="M52 -50Q46 -50 45 -47T46 -38L128 90L158 137L446 590L461 614L515 699Q519 705 527 705H590Q596 705 597 702T596 693L512 561L489 524L202 75L182 43L127 -44Q123 -50 115 -50H52ZM321 -12Q196 -12 135 49T73
223V432Q73 545 134 606T321 667Q446 667 507 606T569 432V223Q569 111 508 50T321 -12ZM321 63Q401 63 442 104T484 224V431Q484 511 443 551T321 592Q242 592 200 552T158 431V224Q158 145 200 104T321 63Z" />
<glyph unicode="&#xd9;" horiz-adv-x="644" d="M322 -12Q207 -12 144 49T80 225V645Q80 655 90 655H155Q165 655 165 645V222Q165 146 205 105T322 63Q398 63 438 104T479 222V645Q479 655 489 655H554Q564 655 564 645V223Q564 114 500 51T322 -12ZM313 710Q306
710 302 716L230 817Q227 822 228 825T235 829H308Q315 829 318 822L374 720Q376 716 375 713T369 710H313Z" />
<glyph unicode="&#xda;" horiz-adv-x="644" d="M322 -12Q207 -12 144 49T80 225V645Q80 655 90 655H155Q165 655 165 645V222Q165 146 205 105T322 63Q398 63 438 104T479 222V645Q479 655 489 655H554Q564 655 564 645V223Q564 114 500 51T322 -12ZM275 710Q270
710 269 713T270 720L326 822Q330 829 336 829H409Q414 829 415 826T414 817L342 716Q338 710 331 710H275Z" />
<glyph unicode="&#xdb;" horiz-adv-x="644" d="M322 -12Q207 -12 144 49T80 225V645Q80 655 90 655H155Q165 655 165 645V222Q165 146 205 105T322 63Q398 63 438 104T479 222V645Q479 655 489 655H554Q564 655 564 645V223Q564 114 500 51T322 -12ZM193 718Q182
713 182 724V774Q182 781 189 784L315 840Q322 844 329 840L455 784Q462 781 462 774V724Q462 713 451 718L322 764L193 718Z" />
<glyph unicode="&#xdc;" horiz-adv-x="644" d="M322 -12Q207 -12 144 49T80 225V645Q80 655 90 655H155Q165 655 165 645V222Q165 146 205 105T322 63Q398 63 438 104T479 222V645Q479 655 489 655H554Q564 655 564 645V223Q564 114 500 51T322 -12ZM238 711Q210
711 198 725T186 762V772Q186 795 198 809T238 823Q266 823 278 809T290 772V762Q290 740 278 726T238 711ZM406 711Q378 711 366 725T354 762V772Q354 795 366 809T406 823Q434 823 446 809T458 772V762Q458 740 446 726T406 711Z" />
<glyph unicode="&#xdd;" horiz-adv-x="535" d="M235 0Q225 0 225 10V225L11 643Q9 648 11 651T18 655H94Q103 655 106 648L216 422Q229 396 242 369T268 315H269Q283 343 296 370T322 425L431 648Q434 655 443 655H517Q522 655 524 652T524 643L310 225V10Q310
0 300 0H235ZM221 710Q216 710 215 713T216 720L272 822Q276 829 282 829H355Q360 829 361 826T360 817L288 716Q284 710 277 710H221Z" />
<glyph unicode="&#xde;" horiz-adv-x="545" d="M95 0Q85 0 85 10V645Q85 655 95 655H160Q170 655 170 645V544H262Q383 544 444 493T505 340Q505 240 444 188T262 136H170V10Q170 0 160 0H95ZM170 208H260Q344 208 382 239T420 337Q420 408 381 440T258 472H170V208Z" />
<glyph unicode="&#xdf;" horiz-adv-x="538" d="M343 -12Q294 -12 262 0T215 40T199 108Q199 117 210 117H272Q281 117 281 107Q281 85 297 74T344 62Q382 62 401 78T420 127Q420 162 403 185T360 226T309 262T266 305T248 366Q248 397 262 419T296 460T329 501T344
554Q344 588 322 605T258 623Q208 623 184 597T160 513V10Q160 0 150 0H85Q75 0 75 10V502Q75 601 119 648T255 695Q311 695 350 680T409 633T429 556Q429 515 415 488T381 442T348 407T333 372Q333 351 350 334T393 299T444 257T487 202T505 124Q505 59 465 24T343
-12Z" />
<glyph unicode="&#xe0;" horiz-adv-x="494" d="M358 0Q352 0 350 4T346 14Q345 22 342 48T337 96L334 134V333Q334 383 314 404T244 425Q154 425 154 363Q154 353 145 353H79Q69 353 68 372Q63 429 112 464T247 500Q334 500 376 459T419 335V121Q419 86 421 59T426
11Q428 0 416 0H358ZM167 -12Q109 -12 79 23T48 125Q48 177 68 210T134 261T256 285L350 293V228L254 220Q185 214 159 195T133 131Q133 97 147 80T189 63Q222 63 258 85T353 169V94Q318 56 288 33T228 -1T167 -12ZM239 556Q232 556 228 562L145 684Q142 688 143
691T150 695H220Q229 695 232 688L298 566Q303 556 293 556H239Z" />
<glyph unicode="&#xe1;" horiz-adv-x="494" d="M358 0Q352 0 350 4T346 14Q345 22 342 48T337 96L334 134V333Q334 383 314 404T244 425Q154 425 154 363Q154 353 145 353H79Q69 353 68 372Q63 429 112 464T247 500Q334 500 376 459T419 335V121Q419 86 421 59T426
11Q428 0 416 0H358ZM167 -12Q109 -12 79 23T48 125Q48 177 68 210T134 261T256 285L350 293V228L254 220Q185 214 159 195T133 131Q133 97 147 80T189 63Q222 63 258 85T353 169V94Q318 56 288 33T228 -1T167 -12ZM192 556Q182 556 187 566L253 688Q257 695 265
695H335Q340 695 341 692T340 684L257 562Q253 556 246 556H192Z" />
<glyph unicode="&#xe2;" horiz-adv-x="494" d="M358 0Q352 0 350 4T346 14Q345 22 342 48T337 96L334 134V333Q334 383 314 404T244 425Q154 425 154 363Q154 353 145 353H79Q69 353 68 372Q63 429 112 464T247 500Q334 500 376 459T419 335V121Q419 86 421 59T426
11Q428 0 416 0H358ZM167 -12Q109 -12 79 23T48 125Q48 177 68 210T134 261T256 285L350 293V228L254 220Q185 214 159 195T133 131Q133 97 147 80T189 63Q222 63 258 85T353 169V94Q318 56 288 33T228 -1T167 -12ZM124 552Q113 546 113 556V607Q113 616 120 620L236
686Q243 691 250 686L366 620Q373 616 373 607V556Q373 546 362 552L243 611L124 552Z" />
<glyph unicode="&#xe3;" horiz-adv-x="494" d="M358 0Q352 0 350 4T346 14Q345 22 342 48T337 96L334 134V333Q334 383 314 404T244 425Q154 425 154 363Q154 353 145 353H79Q69 353 68 372Q63 429 112 464T247 500Q334 500 376 459T419 335V121Q419 86 421 59T426
11Q428 0 416 0H358ZM167 -12Q109 -12 79 23T48 125Q48 177 68 210T134 261T256 285L350 293V228L254 220Q185 214 159 195T133 131Q133 97 147 80T189 63Q222 63 258 85T353 169V94Q318 56 288 33T228 -1T167 -12ZM293 567Q273 567 257 573T226 586T191 592Q174
592 155 585T125 573Q113 568 113 579V626Q113 635 119 639Q128 646 147 655T193 664Q218 664 234 658T264 646T295 639Q312 639 331 646T361 658Q373 663 373 652V605Q373 597 367 592Q358 585 339 576T293 567Z" />
<glyph unicode="&#xe4;" horiz-adv-x="494" d="M358 0Q352 0 350 4T346 14Q345 22 342 48T337 96L334 134V333Q334 383 314 404T244 425Q154 425 154 363Q154 353 145 353H79Q69 353 68 372Q63 429 112 464T247 500Q334 500 376 459T419 335V121Q419 86 421 59T426
11Q428 0 416 0H358ZM167 -12Q109 -12 79 23T48 125Q48 177 68 210T134 261T256 285L350 293V228L254 220Q185 214 159 195T133 131Q133 97 147 80T189 63Q222 63 258 85T353 169V94Q318 56 288 33T228 -1T167 -12ZM158 570Q130 570 118 584T106 621V631Q106 654
118 668T158 682Q186 682 198 668T210 631V621Q210 599 198 585T158 570ZM327 570Q299 570 287 584T275 621V631Q275 654 287 668T327 682Q355 682 367 668T379 631V621Q379 599 367 585T327 570Z" />
<glyph unicode="&#xe5;" horiz-adv-x="494" d="M358 0Q352 0 350 4T346 14Q345 22 342 48T337 96L334 134V333Q334 383 314 404T244 425Q154 425 154 363Q154 353 145 353H79Q69 353 68 372Q63 429 112 464T247 500Q334 500 376 459T419 335V121Q419 86 421 59T426
11Q428 0 416 0H358ZM167 -12Q109 -12 79 23T48 125Q48 177 68 210T134 261T256 285L350 293V228L254 220Q185 214 159 195T133 131Q133 97 147 80T189 63Q222 63 258 85T353 169V94Q318 56 288 33T228 -1T167 -12ZM243 551Q193 551 163 576T132 647Q132 694 162
718T243 743Q293 743 323 719T354 647Q354 601 324 576T243 551ZM243 601Q271 601 282 614T294 647Q294 667 283 680T243 693Q215 693 204 680T192 647Q192 627 203 614T243 601Z" />
<glyph unicode="&#xe6;" horiz-adv-x="778" d="M164 -12Q108 -12 78 23T48 125Q48 178 68 211T135 263T256 289L334 296V333Q334 383 314 404T244 425Q199 425 177 410T154 363Q154 353 145 353H79Q69 353 68 372Q65 410 85 438T145 483T236 500Q288 500 324 483T381
433Q405 465 446 482T537 500Q623 500 670 450T718 311V237Q718 227 708 227H415V191Q415 122 440 93T525 63Q571 63 597 78T623 118Q623 135 634 135H699Q709 135 709 112Q709 56 657 22T517 -12Q451 -12 410 12T350 86Q301 36 256 12T164 -12ZM189 63Q219 63
251 83T336 152Q335 163 335 176T334 201V227L254 220Q185 214 159 195T133 131Q133 97 147 80T189 63ZM415 296H633V298Q633 363 608 394T529 425Q473 425 444 393T415 297V296Z" />
<glyph unicode="&#xe7;" horiz-adv-x="517" d="M266 -12Q166 -12 114 38T62 182V306Q62 400 115 450T268 500Q327 500 369 482T434 433T457 358Q457 335 447 335H381Q372 335 372 351Q372 386 344 405T268 425Q207 425 177 394T147 298V190Q147 126 177 95T267
63Q315 63 343 84T371 136Q371 152 380 152H446Q456 152 456 143Q456 72 407 30T266 -12ZM248 -197Q238 -197 228 -196T207 -193Q199 -192 199 -185V-148Q199 -140 207 -141Q214 -142 222 -142T235 -143Q257 -143 266 -136T276 -119V-106Q276 -91 268 -86T242 -80H219Q212
-80 212 -73Q212 -68 212 -63T214 -53L237 22Q239 28 246 28H294Q302 28 299 17L281 -41H290Q316 -41 329 -58T343 -105V-120Q343 -160 320 -178T248 -197Z" />
<glyph unicode="&#xe8;" horiz-adv-x="519" d="M261 -12Q165 -12 114 33T62 166V306Q62 401 113 450T261 500Q358 500 408 452T459 311V233Q459 223 449 223H147V191Q147 124 175 94T266 63Q313 63 338 78T364 124Q364 135 375 135H440Q448 135 450 126Q454 62
403 25T261 -12ZM147 296H374V302Q374 365 346 395T262 425Q204 425 176 394T147 301V296ZM254 568Q247 568 243 574L160 696Q157 700 158 703T165 707H235Q244 707 247 700L313 578Q318 568 308 568H254Z" />
<glyph unicode="&#xe9;" horiz-adv-x="519" d="M261 -12Q165 -12 114 33T62 166V306Q62 401 113 450T261 500Q358 500 408 452T459 311V233Q459 223 449 223H147V191Q147 124 175 94T266 63Q313 63 338 78T364 124Q364 135 375 135H440Q448 135 450 126Q454 62
403 25T261 -12ZM147 296H374V302Q374 365 346 395T262 425Q204 425 176 394T147 301V296ZM207 568Q197 568 202 578L268 700Q272 707 280 707H350Q355 707 356 704T355 696L272 574Q268 568 261 568H207Z" />
<glyph unicode="&#xea;" horiz-adv-x="519" d="M261 -12Q165 -12 114 33T62 166V306Q62 401 113 450T261 500Q358 500 408 452T459 311V233Q459 223 449 223H147V191Q147 124 175 94T266 63Q313 63 338 78T364 124Q364 135 375 135H440Q448 135 450 126Q454 62
403 25T261 -12ZM147 296H374V302Q374 365 346 395T262 425Q204 425 176 394T147 301V296ZM139 564Q128 558 128 568V619Q128 628 135 632L251 698Q258 703 265 698L381 632Q388 628 388 619V568Q388 558 377 564L258 623L139 564Z" />
<glyph unicode="&#xeb;" horiz-adv-x="519" d="M261 -12Q165 -12 114 33T62 166V306Q62 401 113 450T261 500Q358 500 408 452T459 311V233Q459 223 449 223H147V191Q147 124 175 94T266 63Q313 63 338 78T364 124Q364 135 375 135H440Q448 135 450 126Q454 62
403 25T261 -12ZM147 296H374V302Q374 365 346 395T262 425Q204 425 176 394T147 301V296ZM173 582Q145 582 133 596T121 633V643Q121 666 133 680T173 694Q201 694 213 680T225 643V633Q225 611 213 597T173 582ZM342 582Q314 582 302 596T290 633V643Q290 666
302 680T342 694Q370 694 382 680T394 643V633Q394 611 382 597T342 582Z" />
<glyph unicode="&#xec;" horiz-adv-x="235" d="M85 0Q75 0 75 10V478Q75 488 85 488H150Q160 488 160 478V10Q160 0 150 0H85ZM370 556Q363 556 359 562L276 684Q273 688 274 691T281 695H351Q360 695 363 688L429 566Q434 556 424 556H370Z" />
<glyph unicode="&#xed;" horiz-adv-x="235" d="M85 0Q75 0 75 10V478Q75 488 85 488H150Q160 488 160 478V10Q160 0 150 0H85ZM67 556Q57 556 62 566L128 688Q132 695 140 695H210Q215 695 216 692T215 684L132 562Q128 556 121 556H67Z" />
<glyph unicode="&#xee;" horiz-adv-x="235" d="M85 0Q75 0 75 10V478Q75 488 85 488H150Q160 488 160 478V10Q160 0 150 0H85ZM255 552Q244 546 244 556V607Q244 616 251 620L367 686Q374 691 381 686L497 620Q504 616 504 607V556Q504 546 493 552L374 611L255 552Z" />
<glyph unicode="&#xef;" horiz-adv-x="235" d="M85 0Q75 0 75 10V478Q75 488 85 488H150Q160 488 160 478V10Q160 0 150 0H85ZM289 570Q261 570 249 584T237 621V631Q237 654 249 668T289 682Q317 682 329 668T341 631V621Q341 599 329 585T289 570ZM458 570Q430
570 418 584T406 621V631Q406 654 418 668T458 682Q486 682 498 668T510 631V621Q510 599 498 585T458 570Z" />
<glyph unicode="&#xf0;" horiz-adv-x="532" d="M266 -12Q166 -12 114 34T62 175V280Q62 372 104 419T218 466Q272 466 316 446T392 382V296Q364 341 322 365T235 390Q193 390 170 361T147 268V183Q147 116 176 88T266 60Q328 60 357 95T387 197V306Q393 369 380
423T337 519T266 590T174 631Q162 634 160 638T161 648L188 687Q192 693 196 694T209 693Q288 679 346 630T437 509T470 355V195Q470 95 418 42T266 -12ZM193 515Q185 511 180 522L162 560Q159 568 168 572L434 692Q442 696 447 685L464 647Q467 639 458 635L193
515Z" />
<glyph unicode="&#xf1;" horiz-adv-x="556" d="M406 0Q396 0 396 10V329Q396 379 376 402T314 425Q275 425 237 402T142 323L143 400Q177 436 207 458T268 490T333 500Q405 500 443 458T481 333V10Q481 0 471 0H406ZM85 0Q75 0 75 10V366Q75 392 73 424T68 475Q66
488 78 488H139Q148 488 150 478Q152 470 154 453T158 418T160 386V360V10Q160 0 150 0H85ZM332 567Q312 567 296 573T265 586T230 592Q213 592 194 585T164 573Q152 568 152 579V626Q152 635 158 639Q167 646 186 655T232 664Q257 664 273 658T303 646T334 639Q351
639 370 646T400 658Q412 663 412 652V605Q412 597 406 592Q397 585 378 576T332 567Z" />
<glyph unicode="&#xf2;" horiz-adv-x="536" d="M268 -12Q167 -12 115 37T62 186V302Q62 402 114 451T268 500Q369 500 421 451T474 302V186Q474 86 422 37T268 -12ZM268 63Q332 63 360 95T389 194V294Q389 360 361 392T268 425Q204 425 176 393T147 294V194Q147
128 175 96T268 63ZM264 556Q257 556 253 562L170 684Q167 688 168 691T175 695H245Q254 695 257 688L323 566Q328 556 318 556H264Z" />
<glyph unicode="&#xf3;" horiz-adv-x="536" d="M268 -12Q167 -12 115 37T62 186V302Q62 402 114 451T268 500Q369 500 421 451T474 302V186Q474 86 422 37T268 -12ZM268 63Q332 63 360 95T389 194V294Q389 360 361 392T268 425Q204 425 176 393T147 294V194Q147
128 175 96T268 63ZM217 556Q207 556 212 566L278 688Q282 695 290 695H360Q365 695 366 692T365 684L282 562Q278 556 271 556H217Z" />
<glyph unicode="&#xf4;" horiz-adv-x="536" d="M268 -12Q167 -12 115 37T62 186V302Q62 402 114 451T268 500Q369 500 421 451T474 302V186Q474 86 422 37T268 -12ZM268 63Q332 63 360 95T389 194V294Q389 360 361 392T268 425Q204 425 176 393T147 294V194Q147
128 175 96T268 63ZM149 552Q138 546 138 556V607Q138 616 145 620L261 686Q268 691 275 686L391 620Q398 616 398 607V556Q398 546 387 552L268 611L149 552Z" />
<glyph unicode="&#xf5;" horiz-adv-x="536" d="M268 -12Q167 -12 115 37T62 186V302Q62 402 114 451T268 500Q369 500 421 451T474 302V186Q474 86 422 37T268 -12ZM268 63Q332 63 360 95T389 194V294Q389 360 361 392T268 425Q204 425 176 393T147 294V194Q147
128 175 96T268 63ZM318 567Q298 567 282 573T251 586T216 592Q199 592 180 585T150 573Q138 568 138 579V626Q138 635 144 639Q153 646 172 655T218 664Q243 664 259 658T289 646T320 639Q337 639 356 646T386 658Q398 663 398 652V605Q398 597 392 592Q383 585
364 576T318 567Z" />
<glyph unicode="&#xf6;" horiz-adv-x="536" d="M268 -12Q167 -12 115 37T62 186V302Q62 402 114 451T268 500Q369 500 421 451T474 302V186Q474 86 422 37T268 -12ZM268 63Q332 63 360 95T389 194V294Q389 360 361 392T268 425Q204 425 176 393T147 294V194Q147
128 175 96T268 63ZM183 570Q155 570 143 584T131 621V631Q131 654 143 668T183 682Q211 682 223 668T235 631V621Q235 599 223 585T183 570ZM352 570Q324 570 312 584T300 621V631Q300 654 312 668T352 682Q380 682 392 668T404 631V621Q404 599 392 585T352 570Z"
/>
<glyph unicode="&#xf7;" horiz-adv-x="600" d="M102 265Q92 265 92 275V326Q92 336 102 336H498Q508 336 508 326V275Q508 265 498 265H102ZM300 111Q275 111 262 123T249 154V171Q249 191 262 203T300 215Q326 215 338 203T351 171V154Q351 135 339 123T300 111ZM300
385Q275 385 262 397T249 428V445Q249 465 262 477T300 489Q326 489 338 477T351 445V428Q351 409 339 397T300 385Z" />
<glyph unicode="&#xf8;" horiz-adv-x="536" d="M13 -51Q7 -51 5 -47T7 -39L104 88L120 108L359 420L388 457L445 532Q450 538 458 538H523Q529 538 531 535T529 526L438 408L405 364L180 71L151 34L91 -45Q87 -51 78 -51H13ZM268 -12Q167 -12 115 37T62 186V302Q62
402 114 451T268 500Q369 500 421 451T474 302V186Q474 86 422 37T268 -12ZM268 63Q332 63 360 95T389 194V294Q389 360 361 392T268 425Q204 425 176 393T147 294V194Q147 128 175 96T268 63Z" />
<glyph unicode="&#xf9;" horiz-adv-x="542" d="M207 -12Q143 -12 109 31T75 155V478Q75 488 85 488H150Q160 488 160 478V159Q160 110 177 87T232 63Q269 63 306 86T400 166L398 87Q366 54 334 32T271 -1T207 -12ZM407 0Q396 0 395 10Q392 29 390 49T387 90L382
132V478Q382 488 392 488H457Q467 488 467 478V122Q467 95 468 66T474 10Q476 0 463 0H407ZM267 556Q260 556 256 562L173 684Q170 688 171 691T178 695H248Q257 695 260 688L326 566Q331 556 321 556H267Z" />
<glyph unicode="&#xfa;" horiz-adv-x="542" d="M207 -12Q143 -12 109 31T75 155V478Q75 488 85 488H150Q160 488 160 478V159Q160 110 177 87T232 63Q269 63 306 86T400 166L398 87Q366 54 334 32T271 -1T207 -12ZM407 0Q396 0 395 10Q392 29 390 49T387 90L382
132V478Q382 488 392 488H457Q467 488 467 478V122Q467 95 468 66T474 10Q476 0 463 0H407ZM220 556Q210 556 215 566L281 688Q285 695 293 695H363Q368 695 369 692T368 684L285 562Q281 556 274 556H220Z" />
<glyph unicode="&#xfb;" horiz-adv-x="542" d="M207 -12Q143 -12 109 31T75 155V478Q75 488 85 488H150Q160 488 160 478V159Q160 110 177 87T232 63Q269 63 306 86T400 166L398 87Q366 54 334 32T271 -1T207 -12ZM407 0Q396 0 395 10Q392 29 390 49T387 90L382
132V478Q382 488 392 488H457Q467 488 467 478V122Q467 95 468 66T474 10Q476 0 463 0H407ZM152 552Q141 546 141 556V607Q141 616 148 620L264 686Q271 691 278 686L394 620Q401 616 401 607V556Q401 546 390 552L271 611L152 552Z" />
<glyph unicode="&#xfc;" horiz-adv-x="542" d="M207 -12Q143 -12 109 31T75 155V478Q75 488 85 488H150Q160 488 160 478V159Q160 110 177 87T232 63Q269 63 306 86T400 166L398 87Q366 54 334 32T271 -1T207 -12ZM407 0Q396 0 395 10Q392 29 390 49T387 90L382
132V478Q382 488 392 488H457Q467 488 467 478V122Q467 95 468 66T474 10Q476 0 463 0H407ZM186 570Q158 570 146 584T134 621V631Q134 654 146 668T186 682Q214 682 226 668T238 631V621Q238 599 226 585T186 570ZM355 570Q327 570 315 584T303 621V631Q303 654
315 668T355 682Q383 682 395 668T407 631V621Q407 599 395 585T355 570Z" />
<glyph unicode="&#xfd;" horiz-adv-x="497" d="M145 -185Q133 -185 138 -173L209 6L24 476Q19 488 31 488H102Q110 488 113 480L203 238Q215 207 226 174T249 109H250Q261 141 273 174T297 238L387 480Q390 488 399 488H466Q479 488 474 476L221 -177Q218 -185
210 -185H145ZM195 556Q185 556 190 566L256 688Q260 695 268 695H338Q343 695 344 692T343 684L260 562Q256 556 249 556H195Z" />
<glyph unicode="&#xfe;" horiz-adv-x="537" d="M85 -185Q75 -185 75 -175V673Q75 683 85 683H150Q160 683 160 673V429Q204 467 242 483T323 500Q397 500 435 454T473 314V189Q473 92 427 40T294 -12Q260 -12 223 -4T160 18V-175Q160 -185 150 -185H85ZM276 63Q334
63 361 97T388 199V309Q388 369 367 397T305 425Q273 425 241 408T160 349V90Q187 77 218 70T276 63Z" />
<glyph unicode="&#xff;" horiz-adv-x="497" d="M145 -185Q133 -185 138 -173L209 6L24 476Q19 488 31 488H102Q110 488 113 480L203 238Q215 207 226 174T249 109H250Q261 141 273 174T297 238L387 480Q390 488 399 488H466Q479 488 474 476L221 -177Q218 -185
210 -185H145ZM161 570Q133 570 121 584T109 621V631Q109 654 121 668T161 682Q189 682 201 668T213 631V621Q213 599 201 585T161 570ZM330 570Q302 570 290 584T278 621V631Q278 654 290 668T330 682Q358 682 370 668T382 631V621Q382 599 370 585T330 570Z"
/>
<glyph unicode="&#x2013;" horiz-adv-x="740" d="M80 233Q70 233 70 243V288Q70 298 80 298H660Q670 298 670 288V243Q670 233 660 233H80Z" />
<glyph unicode="&#x2014;" horiz-adv-x="880" d="M80 233Q70 233 70 243V288Q70 298 80 298H800Q810 298 810 288V243Q810 233 800 233H80Z" />
<glyph unicode="&#x2018;" horiz-adv-x="232" d="M192 655Q204 655 201 642L151 431Q149 422 141 422H65Q52 422 57 436L129 648Q132 655 138 655H192Z" />
<glyph unicode="&#x2019;" horiz-adv-x="232" d="M40 422Q28 422 31 435L81 646Q83 655 91 655H167Q180 655 175 641L103 429Q100 422 94 422H40Z" />
<glyph unicode="&#x201a;" horiz-adv-x="232" d="M40 -128Q28 -128 31 -115L81 96Q83 105 91 105H167Q180 105 175 91L103 -121Q100 -128 94 -128H40Z" />
<glyph unicode="&#x201c;" horiz-adv-x="387" d="M347 655Q359 655 356 642L306 431Q304 422 296 422H220Q207 422 212 436L284 648Q287 655 293 655H347ZM192 655Q204 655 201 642L151 431Q149 422 141 422H65Q52 422 57 436L129 648Q132 655 138 655H192Z" />
<glyph unicode="&#x201d;" horiz-adv-x="387" d="M40 422Q28 422 31 435L81 646Q83 655 91 655H167Q180 655 175 641L103 429Q100 422 94 422H40ZM195 422Q183 422 186 435L236 646Q238 655 246 655H322Q335 655 330 641L258 429Q255 422 249 422H195Z" />
<glyph unicode="&#x201e;" horiz-adv-x="387" d="M40 -128Q28 -128 31 -115L81 96Q83 105 91 105H167Q180 105 175 91L103 -121Q100 -128 94 -128H40ZM195 -128Q183 -128 186 -115L236 96Q238 105 246 105H322Q335 105 330 91L258 -121Q255 -128 249 -128H195Z" />
<glyph unicode="&#x2022;" horiz-adv-x="297" d="M148 170Q109 170 87 187T65 238V283Q65 316 87 333T148 351Q188 351 210 334T232 283V238Q232 205 210 188T148 170Z" />
<glyph unicode="&#x2039;" horiz-adv-x="328" d="M178 93Q171 93 166 100L74 256Q69 263 74 270L166 426Q171 433 178 433H244Q249 433 251 430T251 421L165 263L251 105Q254 100 252 97T244 93H178Z" />
<glyph unicode="&#x203a;" horiz-adv-x="328" d="M84 93Q79 93 77 96T77 105L163 263L77 421Q74 426 76 429T84 433H150Q157 433 162 426L254 270Q259 263 254 256L162 100Q157 93 150 93H84Z" />
</font>
</defs>
</svg>
